36影盘论坛

 找回密码
 立即注册
版主招募中。。 QQ交流群: 459235815(可加) 论坛注册功能已恢复
https://www.85lou.com/forum.php?mod=attachment&aid=Mzc5NzkyfDdiYzE5MzQ1fDE1NTcwNzQ3NjJ8MHwyNjU1NDU%3D&noupdate=yes p2551352209.jpg (24.5
https://www.85lou.com/forum.php?mod=attachment&aid=Mzc5NzYyfGE3ZGVhMzlhfDE1NTcwNzQ3NjN8MHwyNjU1MzQ%3D&noupdate
查看: 109|回复: 0

忌日快乐2[中英特效字幕].2019.1080p.WEB-DL.DD5.1.H264-LFHM 3.43GB

[复制链接]

该用户从未签到

发表于 2019-5-6 00:48:51 | 显示全部楼层 |阅读模式


◎译  名 忌日快乐2/死亡无限2次LOOP(港)/祝你忌日快乐(台)
◎片  名 Happy Death Day 2U/ Happy Death Day 2/Happy Death Day to You
◎年  代 2019
◎国  家 美国
◎类  别 剧情/恐怖/惊悚
◎语  言 英语
◎IMDb评分 6.4/10 from 16,155 users
◎IMDB链接 https://www.imdb.com/title/tt8155288/
◎片  长 1 h 39 min
◎导  演 克里斯托弗·兰登 Christopher Landon
◎主  演 伊瑟尔·布罗萨德 Israel Broussard
      露比·莫迪恩 Ruby Modine
      苏拉·沙玛 Suraj Sharma
      史蒂夫·齐西斯 Steve Zissis
  



◎简  介

  续集中,女主角又回到了上一部中循环往复的那一天,但这次受到死亡威胁不再只是她一个人,而是所有人!





General
Unique ID                      : 834665516878450311753643494883984667 (0xA0C02FEC5867EEDE24D2ABBD94051B)
Complete name                  : 忌日快乐2[中英特效字幕]Happy.Death.Day.2U.2019.1080p.WEB-DL.DD5.1.H264-LFHM.mkv
Format                         : Matroska
Format version                 : Version 4
File size                      : 3.44 GiB
Duration                       : 1 h 39 min
Overall bit rate               : 4 922 kb/s
Movie name                     : Happy.Death.Day.2U.2019.1080p.WEB-DL.DD5.1.H264-FGT
Encoded date                   : UTC 2019-05-04 19:41:50
Writing application            : mkvmerge v33.1.0 ('Primrose') 64-bit
Writing library                : libebml v1.3.7 + libmatroska v1.5.0
Cover                          : Yes
Attachments                    : cover_land.jpg / small_cover.jpg / small_cover_land.jpg / cover.jpg


Video
ID                             : 1
Format                         : AVC
Format/Info                    : Advanced Video Codec
Format profile                 : High@L4
Format settings                : CABAC / 5 Ref Frames
Format settings, CABAC         : Yes
Format settings, ReFrames      : 5 frames
Codec ID                       : V_MPEG4/ISO/AVC
Duration                       : 1 h 39 min
Bit rate                       : 4 535 kb/s
Width                          : 1 920 pixels
Height                         : 800 pixels
Display aspect ratio           : 2.40:1
Frame rate mode                : Constant
Frame rate                     : 23.976 (24000/1001) FPS
Color space                    : YUV
Chroma subsampling             : 4:2:0
Bit depth                      : 8 bits
Scan type                      : Progressive
Bits/(Pixel*Frame)             : 0.123
Stream size                    : 3.17 GiB (92%)
Title                          : Happy.Death.Day.2U.2019.1080p.WEB-DL.DD5.1.H264-FGT
Language                       : English
Default                        : Yes
Forced                         : No
Color range                    : Limited
Color primaries                : BT.709
Transfer characteristics       : BT.709
Matrix coefficients            : BT.709


Audio
ID                             : 2
Format                         : AC-3
Format/Info                    : Audio Coding 3
Commercial name                : Dolby Digital
Codec ID                       : A_AC3
Duration                       : 1 h 39 min
Bit rate mode                  : Constant
Bit rate                       : 384 kb/s
Channel(s)                     : 6 channels
Channel layout                 : L R C LFE Ls Rs
Sampling rate                  : 48.0 kHz
Frame rate                     : 31.250 FPS (1536 SPF)
Bit depth                      : 16 bits
Compression mode               : Lossy
Delay relative to video        : -42 ms
Stream size                    : 275 MiB (8%)
Title                          : Happy.Death.Day.2U.2019.1080p.WEB-DL.DD5.1.H264-FGT
Language                       : English
Service kind                   : Complete Main
Default                        : Yes
Forced                         : No


Text #1
ID                             : 3
Format                         : UTF-8
Codec ID                       : S_TEXT/UTF8
Codec ID/Info                  : UTF-8 Plain Text
Duration                       : 1 h 33 min
Bit rate                       : 63 b/s
Count of elements              : 1604
Stream size                    : 43.8 KiB (0%)
Language                       : English
Default                        : No
Forced                         : No


Text #2
ID                             : 4
Format                         : ASS
Codec ID                       : S_TEXT/ASS
Codec ID/Info                  : Advanced Sub Station Alpha
Duration                       : 1 h 34 min
Bit rate                       : 267 b/s
Count of elements              : 1548
Compression mode               : Lossless
Stream size                    : 186 KiB (0%)
Language                       : Chinese
Default                        : Yes
Forced                         : No


Text #3
ID                             : 5
Format                         : UTF-8
Codec ID                       : S_TEXT/UTF8
Codec ID/Info                  : UTF-8 Plain Text
Duration                       : 1 h 34 min
Bit rate                       : 118 b/s
Count of elements              : 1544
Stream size                    : 82.1 KiB (0%)
Language                       : Chinese
Default                        : No
Forced                         : No


Menu
00:00:00.000                   : en:1
00:07:43.254                   : en:2
00:16:02.086                   : en:3
00:21:17.067                   : en:4
00:24:22.460                   : en:5
00:28:45.890                   : en:6
00:32:35.661                   : en:7
00:37:16.817                   : en:8
00:42:03.812                   : en:9
00:45:36.107                   : en:10
00:48:38.664                   : en:11
00:54:28.347                   : en:12
01:00:37.340                   : en:13
01:06:25.312                   : en:14
01:13:20.518                   : en:15
01:17:48.077                   : en:16
01:21:32.760                   : en:17
01:27:37.082                   : en:18
01:33:03.992                   : en:19
01:35:06.698                   : en:20
回复

使用道具 举报

您需要登录后才可以回帖 登录 | 立即注册

本版积分规则

Archiver|手机版|小黑屋|36影盘论坛  广告QQ联系986419005

GMT+8, 2019-6-20 09:51 , Processed in 1.125015 second(s), 21 queries .

Powered by Discuz! X3.1

© 2001-2013 Comsenz Inc. Discuz模板

快速回复 返回顶部 返回列表