36影盘论坛

 找回密码
 立即注册
版主招募中。。 QQ交流群: 459235815(可加) 论坛注册功能已恢复
https://www.85lou.com/forum.php?mod=attachment&aid=Mzc5NzkyfDdiYzE5MzQ1fDE1NTcwNzQ3NjJ8MHwyNjU1NDU%3D&noupdate=yes p2551352209.jpg (24.5
https://www.85lou.com/forum.php?mod=attachment&aid=Mzc5NzYyfGE3ZGVhMzlhfDE1NTcwNzQ3NjN8MHwyNjU1MzQ%3D&noupdate
查看: 135|回复: 0

神童[中英特效字幕]The.Prodigy.2019.1080p.WEB-DL.DD5.1.H264-LFHM 3.18GB

[复制链接]

该用户从未签到

发表于 2019-5-6 00:49:13 | 显示全部楼层 |阅读模式


◎译  名 神童/后裔/鬼裔(台)
◎片  名 Prodigy
◎年  代 2018
◎产  地 美国/加拿大
◎类  别 惊悚/恐怖
◎语  言 英语
◎IMDb评分 6.0/10 from 4189 userss
◎IMDB链接 https://www.imdb.com/title/tt4504044/
◎片  长 1 h 50 min
◎导  演 尼古拉斯·麦卡锡 Nicholas McCarthy
◎主  演 泰勒·席林 Taylor Schilling
       布列塔尼·艾伦 Brittany Allen
       杰克逊·罗伯特·斯科特 Jackson Robert Scott
       科鲁姆·费奥瑞 Colm Feore


◎简  介


  一位年轻母亲因她8岁的儿子表现出令人不安的行为,认为一些超自然的东西可能会对其产生影响。





General
Unique ID                      : 21350741008708844984827747794812806778 (0x101000CE117CD493DC99D940FD4E267A)
Complete name                  :神童[中英特效字幕]The.Prodigy.2019.1080p.WEB-DL.DD5.1.H264-LFHM.mkv
Format                         : Matroska
Format version                 : Version 4
File size                      : 3.18 GiB
Duration                       : 1 h 31 min
Overall bit rate               : 4 965 kb/s
Movie name                     : The.Prodigy.2019.1080p.WEB-DL.DD5.1.H264-FGT
Encoded date                   : UTC 2019-05-04 19:59:24
Writing application            : mkvmerge v33.1.0 ('Primrose') 64-bit
Writing library                : libebml v1.3.7 + libmatroska v1.5.0
Cover                          : Yes
Attachments                    : cover_land.jpg / small_cover.jpg / small_cover_land.jpg / cover.jpg


Video
ID                             : 1
Format                         : AVC
Format/Info                    : Advanced Video Codec
Format profile                 : High@L4
Format settings                : CABAC / 5 Ref Frames
Format settings, CABAC         : Yes
Format settings, ReFrames      : 5 frames
Codec ID                       : V_MPEG4/ISO/AVC
Duration                       : 1 h 31 min
Bit rate                       : 4 579 kb/s
Width                          : 1 912 pixels
Height                         : 796 pixels
Display aspect ratio           : 2.40:1
Frame rate mode                : Constant
Frame rate                     : 23.976 (23976/1000) FPS
Color space                    : YUV
Chroma subsampling             : 4:2:0
Bit depth                      : 8 bits
Scan type                      : Progressive
Bits/(Pixel*Frame)             : 0.125
Stream size                    : 2.94 GiB (92%)
Title                          : The.Prodigy.2019.1080p.WEB-DL.DD5.1.H264-FGT
Language                       : English
Default                        : Yes
Forced                         : No
Color range                    : Limited
Color primaries                : BT.709
Transfer characteristics       : BT.709
Matrix coefficients            : BT.709


Audio
ID                             : 2
Format                         : AC-3
Format/Info                    : Audio Coding 3
Commercial name                : Dolby Digital
Codec ID                       : A_AC3
Duration                       : 1 h 31 min
Bit rate mode                  : Constant
Bit rate                       : 384 kb/s
Channel(s)                     : 6 channels
Channel layout                 : L R C LFE Ls Rs
Sampling rate                  : 48.0 kHz
Frame rate                     : 31.250 FPS (1536 SPF)
Bit depth                      : 16 bits
Compression mode               : Lossy
Delay relative to video        : -42 ms
Stream size                    : 252 MiB (8%)
Title                          : The.Prodigy.2019.1080p.WEB-DL.DD5.1.H264-FGT
Language                       : English
Service kind                   : Complete Main
Default                        : Yes
Forced                         : No


Text #1
ID                             : 3
Format                         : ASS
Codec ID                       : S_TEXT/ASS
Codec ID/Info                  : Advanced Sub Station Alpha
Duration                       : 1 h 25 min
Bit rate                       : 191 b/s
Count of elements              : 964
Compression mode               : Lossless
Stream size                    : 121 KiB (0%)
Language                       : Chinese
Default                        : Yes
Forced                         : No


Text #2
ID                             : 4
Format                         : UTF-8
Codec ID                       : S_TEXT/UTF8
Codec ID/Info                  : UTF-8 Plain Text
Duration                       : 1 h 25 min
Bit rate                       : 76 b/s
Count of elements              : 960
Stream size                    : 48.1 KiB (0%)
Language                       : Chinese
Default                        : No
Forced                         : No


Menu
00:00:00.000                   : en:1
00:10:06.000                   : en:2
00:20:02.000                   : en:3
00:33:59.000                   : en:4
00:40:22.000                   : en:5
00:50:15.000                   : en:6
01:01:36.000                   : en:7
01:09:53.000                   : en:8
01:21:23.000                   : en:9

回复

使用道具 举报

您需要登录后才可以回帖 登录 | 立即注册

本版积分规则

Archiver|手机版|小黑屋|36影盘论坛  广告QQ联系986419005

GMT+8, 2019-6-20 08:59 , Processed in 1.125007 second(s), 21 queries .

Powered by Discuz! X3.1

© 2001-2013 Comsenz Inc. Discuz模板

快速回复 返回顶部 返回列表